<?xml version="1.0" standalone="no"?>
<!DOCTYPE svg PUBLIC "-//W3C//DTD SVG 1.1//EN" "../../../www.w3.org/Graphics/SVG/1.1/DTD/svg11.dtd" >
<svg xmlns="http://www.w3.org/2000/svg">
<metadata>
This is a custom SVG webfont generated by Font Squirrel.
Copyright   : Copyright c 2011 Natanael Gama exondiscoveredcom with Reserved Font Name Exo
Designer    : Natanael Gama
</metadata>
<defs>
<font id="ExoRegular" horiz-adv-x="1134" >
<font-face units-per-em="2048" ascent="1638" descent="-410" />
<missing-glyph horiz-adv-x="512" />
<glyph unicode=" "  horiz-adv-x="512" />
<glyph unicode="&#x09;" horiz-adv-x="512" />
<glyph unicode="&#xa0;" horiz-adv-x="512" />
<glyph unicode="!" horiz-adv-x="550" d="M168 47v117q0 51 49 51h113q47 0 47 -51v-117q0 -47 -47 -47h-113q-49 0 -49 47zM180 1497h182l-14 -1096h-153z" />
<glyph unicode="&#x22;" horiz-adv-x="778" d="M174 1362v137h154v-137l-21 -275h-110zM451 1362v137h153v-137l-20 -275h-111z" />
<glyph unicode="#" horiz-adv-x="1406" d="M41 475l16 107h326l53 338h-325l18 106h324l75 473h107l-76 -473h340l74 473h106l-73 -473h362l-18 -106h-363l-53 -340h362l-16 -107h-362l-76 -473h-107l76 473l-340 2l-76 -475h-106l76 475h-324zM489 582l338 -2l54 340h-338z" />
<glyph unicode="$" horiz-adv-x="1177" d="M113 1012v135q2 203 103 281.5t284 82.5v177h118v-183q76 -6 225.5 -23.5t166.5 -19.5v-119l-492 19q-59 203CE015A47" />
<glyph unicode="%" horiz-adv-x="1955" d="M86 971v272q0 135 57.5 195.5t206.5 60.5h207q145 0 202.5 -60.5t57.5 -195.5v-272q0 -135 -57.5 -195.5t-206.5 -60.5h-207q-145 0 -202.5 60.5t-57.5 195.5zM219 971q0 -74 26.5 -98.5t100.5 -24.5h207q86 0 108.5 24.5t22.5 98.5v272q0 74 -26.5 98.5t-100.5 24.5 h-207q-84 0 -107.5 -24.5t-23.5 -98.5v-272zM465 0l897 1499h145l-897 -1499h-145zM1139 260v272q0 135 57 195.5t207 60.5h207q145 0 202.5 -60t57.5 -196v-272q0 -135 -57.5 -195.5t-206.5 -60.5h-207q-145 0 -202.5 60.5t-57.5 195.5zM1272 260q0 -74 26.5 -98.5 t100.5 -24.5h207q86 0 108.5 24.5t22.5 98.5v272q0 74 -27 98.5t-100 24.5h-207q-84 0 -107.5 -24.5t-23.5 -98.5v-272z" />
<glyph unicode="&#x26;" horiz-adv-x="1304" d="M72.5 475.5q23.5 157.5 160.5 274.5l177 149l-129 174q-78 113 -67 204t72.5 150.5t137.5 67.5q264 25 545 -41v-102h-416q-92 0 -139 -21.5t-43 -79t71 -149.5l482 -651l233 243l47 -49l-104 -219l-84 -92l239 -334h-180l-168 227l-147 -137q-123 -117 -308.5 -96.5 t-291.5 174.5q-111 150 -87.5 307.5zM289 250q66 -84 170 -105.5t192 50.5l164 153l-319 426l-160 -133q-215 -176 -47 -391z" />
<glyph unicode="'" horiz-adv-x="378" d="M113 1362v137h153v-137l-20 -275h-111z" />
<glyph unicode="(" horiz-adv-x="686" d="M154 668q0 158 33.5 327.5t80.5 300.5t95.5 240t81.5 167l34 58h166q-14 -23 -36.5 -61.5t-81 -161.5t-1030CB18F9A25" />
<glyph unicode=")" horiz-adv-x="686" d="M41 -430q14 20 36.5 56t81 153t103.5 237.5t82 300t37 351.5q0 449 -267 963q-73 131 -73 130h166q12 -23 34.5 -61.5t79 -160.5t99.5 -245t77.5 -296t34.5 -330q0 -180 -33.5 -360.5t-81.5 -307.5t-95.5 -228.5t-80.5 -151.5l-34 -50h-166z" />
<glyph unicode="*" horiz-adv-x="901" d="M102 1159v82l285 59l10 -151zM242 848l49 276l147 -34l-121 -267zM360 1468l80 33l154 -241l-139 -64zM426 975l84 127l225 -187l-43 -65zM514 1169l246 156l39 -72l-187 -198z" />
<glyph unicode="+" horiz-adv-x="1056" d="M102 653v152h349v350h151v-350h352v-152h-352v-350h-151v350h-349z" />
<glyph unicode="," horiz-adv-x="552" d="M174 51v111q0 55 51 55h105q49 0 49 -55v-185q0 -147 -138 -159l-57 2v65q63 -2 64 64v51h-23q-51 0 -51 51z" />
<glyph unicode="-" horiz-adv-x="724" d="M41 518v152h643v-152h-643z" />
<glyph unicode="." horiz-adv-x="557" d="M174 47v117q0 51 49 51h109q51 0 51 -51v-117q0 -47 -51 -47h-109q-49 0 -49 47z" />
<glyph unicode="../../default.htm" horiz-adv-x="819" d="M41 -147l575 1724h162l-575 -1724h-162z" />
<glyph unicode="0" horiz-adv-x="1316" d="M143 332v835q0 160 99.5 246t253.5 86h335q176 0 259.5 -93t83.5 -239v-835q0 -332 -343 -332h-335q-154 0 -253.5 80t-99.5 252zM295 332q0 -94 58.5 -137t142.5 -43h335q190 0 191 180v835q0 180 -191 181h-335q-102 0 -151.5 -50.5t-49.5 -130.5v-835z" />
<glyph unicode="1" horiz-adv-x="741" d="M82 1217v108l344 174h152v-1499h-152v1327z" />
<glyph unicode="2" horiz-adv-x="1222" d="M82 1366v113q322 41 623 41q207 0 311 -127t104 -303q0 -113 -63.5 -242t-149.5 -232.5t-198.5 -207t-185 -159.5t-134.5 -97h731v-152h-1024v139q90 61 178 126t222.5 176.5t230.5 214t168 222t72 216.5q0 121 -65.5 196.5t-199.5 75.5h-620z" />
<glyph unicode="3" horiz-adv-x="1216" d="M61 1352v94q84 31 196 44t220.5 14t235.5 -1q164 -2 257 -97t93 -241v-141q0 -225 -135 -279q135 -86 135 -294v-121q0 -344 -365 -344h-76h-78q-14 0 -69 1t-75.5 2t-66.5 4t-70.5 7t-61.5 10t-68 14.5t-59 18.5l2 96h610q47 0 81 6.5t68.5 24.5t53 58t18.5 102v121 q0 209 -209 217l-497 14v119l497 20q213 10 213 203v141q0 92 -62.5 139.5t-150.5 47.5h-637z" />
<glyph unicode="4" horiz-adv-x="1234" d="M41 459l657 1040h181l-603 -956h582v424l76 153h76v-577h184v-121l-184 -39v-379h-152v379h-747z" />
<glyph unicode="5" horiz-adv-x="1234" d="M156 41v113h622q96 0 140.5 55t44.5 135v225q0 37 -4.5 60.5t-19.5 59.5t-56 54.5t-105 18.5h-315q-68 0 -118 -39t-50 -115h-135l45 891h864v-151h-725l-25 -496q39 47 152 61q49 6 108.5 6.5t121 -3t77.5 -3.5q174 0 255 -91t81 -249v-233q0 -98 -33.5 -171t-88 -108.5 t-108 -52t-106.5 -16.5q-207 0 -317 8t-305 41z" />
<glyph unicode="6" horiz-adv-x="1275" d="M133 786q0 375 103.5 550t248.5 175q334 0 619 -38v-113h-592q-66 0 -113 -55.5t-69.5 -145.5t-32.5 -168t-12 -157q367 43 538 43q190 0 260 -82t70 -224v-268q0 -305 -330 -305h-305q-90 0 -155.5 34t-120 117.5t-82 242t-27.5 394.5zM285 725q0 -63 2 -111.5t8 -122 t22.5 -128t40 -106.5t65.5 -79.5t95 -27.5h305q90 0 135.5 32.5t45.5 132.5v256q0 154 -181 154h-538z" />
<glyph unicode="7" horiz-adv-x="1118" d="M61 1348v151h940l56 -98l-543 -1401h-180l528 1348h-801z" />
<glyph unicode="8" horiz-adv-x="1298" d="M154 315v201q0 70 28.5 118t61 66.5t84.5 34.5q-90 31 -132 112t-42 175v133q0 195 94 274.5t266 79.5h299q168 0 250 -84t82 -270v-133q2 -25 -2 -53.5t-17.5 -69.5t-48.5 -72.5t-86 -42.5q76 -14 116 -100t38 -168v-201q0 -94 -33 -160.5t-87 -98t-105.5 -44 t-108.5 -12.5h-297q-100 0 -172 25.5t-107.5 59.5t-55 84t-22.5 79.5t-3 66.5zM305 309q0 -158 209 -157h297q74 0 128 40.5t54 116.5v215q0 82 -51 124t-125 42h-325q-80 0 -133.5 -39t-53.5 -127v-215zM305 1012q0 -92 58.5 -132t128.5 -40h325q176 0 176 172v139 q0 111 -44 159t-136 48h-299q-111 0 -160 -39t-49 -168v-139z" />
<glyph unicode="9" horiz-adv-x="1275" d="M123 938v268q0 305 330 305h305q90 0 155.5 -33.5t119.5 -117.5t82 -243t28 -394q0 -375 -103.5 -550t-248.5 -175q-430 0 -619 39v113h592q66 0 113 55t69.5 145t32.5 168t12 158q-365 -43 -538 -43q-190 0 -260 82t-70 223zM272 938q0 -154 181 -154h538q0 63 -2 111.5 t-8 122.5t-22.5 128t-40 106.5t-65.5 80t-95 27.5h-305q-90 0 -135.5 -33t-45.5 -133v-256z" />
<glyph unicode=":" horiz-adv-x="557" d="M174 47v117q0 51 49 51h109q51 0 51 -51v-117q0 -47 -51 -47h-109q-49 0 -49 47zM174 922v116q0 51 49 52h109q51 0 51 -52v-116q0 -47 -51 -48h-109q-49 1 -49 48z" />
<glyph unicode=";" horiz-adv-x="561" d="M174 51v111q0 23 14.5 39t36.5 16h105q23 0 36 -15.5t13 -39.5v-185q0 -147 -138 -159l-57 2v65q63 -2 64 64v51h-23q-20 0 -35.5 16.5t-15.5 34.5zM178 924v116q0 51 49 52h109q51 0 51 -52v-116q0 -47 -51 -47h-109q-49 0 -49 47z" />
<glyph unicode="&#x3c;" horiz-adv-x="972" d="M102 643v164l768 332v-164l-565 -250l565 -270v-168z" />
<glyph unicode="=" horiz-adv-x="956" d="M41 434v152h874v-152h-874zM41 862v152h874v-152h-874z" />
<glyph unicode="&#x3e;" horiz-adv-x="972" d="M102 287v168l566 270l-566 250v164l768 -332v-164z" />
<glyph unicode="?" horiz-adv-x="1107" d="M41 1360v113q27 4 98.5 13t92 11t89 9t90 7t97.5 3.5t110 -3.5q217 0 312.5 -105t95.5 -273v-207q0 -199 -138 -278t-360 -44v-207h-153v332h291q86 4 148.5 53.5t62.5 143.5v207q0 119 -66 172t-215 53h-555zM348 47v117q0 51 49 51h113q47 0 47 -51v-117q0 -47 -47 -47 h-113q-49 0 -49 47z" />
<glyph unicode="@" horiz-adv-x="1728" d="M133 0v713q0 35 3 64.5t21.5 83.5t51.5 91t102.5 67t165.5 30h441q129 0 221 -67t92 -220v-762h-115l-29 131l-20 -15q-20 -15 -56 -37t-80 -44.5t-100.5 -37.5t-107.5 -15q-113 -2 -188.5 66.5t-73.5 172.5v109q0 125 69.5 198.5t194.5 73.5h358q2 156 0 156 q0 82 -41 110.5t-131 28.5h-434q-90 0 -141 -37t-51 -147v-713q0 -211 192 -211h715q121 0 166 50t45 161v1049q0 115 -57.5 174t-153.5 59h-827v96q276 57 589 56h238q168 -4 265 -101.5t97 -283.5v-1049q0 -365 -362 -365h-715q-160 0 -252 94.5t-92 270.5zM612 233 q0 -35 38 -68.5t87 -31.5q55 0 127 20.5t104.5 36t114.5 54.5v252l-348 -33q-59 -6 -92 -44t-31 -93v-93z" />
<glyph unicode="A" horiz-adv-x="1372" d="M92 0l551 1499h152l526 -1499h-180l-129 418h-598l-135 -418h-187zM469 569h489l-241 699z" />
<glyph unicode="B" horiz-adv-x="1220" d="M164 0v1499h577q203 0 296 -118.5t93 -270.5q0 -272 -188 -332q78 -18 137.5 -109t59.5 -251q0 -84 -18.5 -154.5t-61.5 -132t-124 -96.5t-194 -35h-577zM317 152h424q246 0 246 270q0 123 -61.5 205t-184.5 82h-424v-557zM317 860h424q238 0 238 250q0 238 -238 238 h-424v-488z" />
<glyph unicode="C" horiz-adv-x="1183" d="M113 754q0 389 105.5 575.5t393.5 186.5q223 0 500 -52v-121l-18 2q-18 1 -49 3t-71 4t-87 4t-93 4t-94.5 3t-87.5 1q-133 0 -205.5 -50t-107.5 -182.5t-35 -381.5q0 -610 348 -611l500 15v-121q-242 -45 -500 -45q-499 0 -499 766z" />
<glyph unicode="D" horiz-adv-x="1345" d="M164 0v1499h557q133 0 232.5 -50t154.5 -126t90 -182.5t45 -199.5t10 -198q0 -106 -17 -207.5t-57 -199.5t-99.5 -172t-151.5 -119t-207 -45h-557zM315 158h406q129 0 217 83t126 211t38 293q0 317 -97.5 460t-283.5 143h-406v-1190z" />
<glyph unicode="E" horiz-adv-x="1161" d="M164 252v981q0 141 72 205q68 61 173 61h13l647 -33v-118h-647q-49 0 -74.5 -19.5t-29 -39t-3.5 -56.5v-410l672 -20v-121l-672 -20v-410q0 -51 22.5 -75.5t43 -28t61.5 -3.5h627v-116l-627 -35q-15 -1 -30 -1q-248 0 -248 259z" />
<glyph unicode="F" horiz-adv-x="1161" d="M164 0v1233q0 141 72 205q68 61 173 61h13l647 -33v-118h-647q-49 0 -74.5 -19.5t-29 -39t-3.5 -56.5v-410l672 -20v-121l-672 -20v-662h-151z" />
<glyph unicode="G" horiz-adv-x="1257" d="M113 758q0 170 18.5 294t67.5 235.5t147 170t246 58.5q80 0 247 -17.5t273 -38.5v-121q-2 0 -38 2t-92 6.5t-121.5 8.5t-138.5 6t-130 2q-195 0 -261.5 -140.5t-66.5 -469.5q0 -342 74 -477.5t262 -137.5q70 0 168 23.5t162 47.5l63 23v410h-344v102q186 51 357 52 q66 0 139 -6v-791h-115l-33 100q-199 -110 -393 -110h-4h-12q-115 0 -201 38q-90 40 -142 104.5t-83 167.5t-40 209t-9 249z" />
<glyph unicode="H" horiz-adv-x="1306" d="M164 0v1499h151v-698h717v698h152v-1499h-152v649h-717v-649h-151z" />
<glyph unicode="I" horiz-adv-x="438" d="M164 0v1499h151v-1499h-151z" />
<glyph unicode="J" horiz-adv-x="735" d="M72 43l8 111q131 -32 205 -32q27 0 46 4q128 29 130 212v1161h151v-1161q0 -233 -106 -301q-79 -49 -208 -49h-10q-136 2 -216 55z" />
<glyph unicode="K" horiz-adv-x="1210" d="M164 0v1499h151v-672h168l471 672h185l-516 -747l516 -752h-185l-471 676h-166v-676h-153z" />
<glyph unicode="L" horiz-adv-x="1140" d="M164 258v1241h151v-1241q0 -39 10.5 -62.5t33 -31.5t38 -10t45.5 -2h627v-152h-627q-59 0 -102 8t-86 33t-66.5 80t-23.5 137z" />
<glyph unicode="M" horiz-adv-x="1640" d="M113 0l98 1499h209l399 -1247l387 1247h207l115 -1499h-152l-92 1225l-385 -1225h-156l-397 1225l-82 -1225h-151z" />
<glyph unicode="N" horiz-adv-x="1392" d="M164 0v1499h155l799 -1216v1216h152v-1499h-152l-801 1217v-1217h-153z" />
<glyph unicode="O" horiz-adv-x="1384" d="M133 739q0 172 18.5 300t57.5 212t85 136.5t117.5 79t139 34.5t164.5 8q84 0 144.5 -6t125 -24.5t107.5 -506A4B70A08" />
<glyph unicode="P" horiz-adv-x="1189" d="M123 0v1499h616q358 0 359 -434q0 -123 -23.5 -211t-57.5 -134t-87 -71.5t-94 -32t-97 -6.5q-59 0 -257.5 18.5t-207.5 22.5v-651h-151zM274 762h465q98 0 151.5 59.5t53.5 243.5q-2 94 -22.5 155.5t-56.5 86t-62.5 32t-63.5 7.5h-465v-584z" />
<glyph unicode="Q" horiz-adv-x="1384" d="M133 739q0 207 27.5 350.5t73 225.5t124 126t156.5 56t197 12q100 0 167.5 -8t139.5 -34.5t118 -79t83.5 -0415060A47" />
<glyph unicode="R" horiz-adv-x="1214" d="M123 0v1499h639q346 0 346 -450q0 -393 -260 -431l315 -618h-164l-315 612l-410 29v-641h-151zM274 776h488q37 0 57.5 2t50 15.5t45 41t27.5 82t12 132.5q0 180 -53 238.5t-139 58.5h-488v-570z" />
<glyph unicode="S" horiz-adv-x="1196" d="M133 1012v135q0 207 106.5 285.5t299.5 78.5q139 0 512 -49v-123l-512 21q-17 1 -33 1q-104 0 -158 -35q-6096FC19A8B" />
<glyph unicode="T" horiz-adv-x="1183" d="M92 1348v151h1041v-151h-451v-1348h-152v1348h-438z" />
<glyph unicode="U" horiz-adv-x="1386" d="M164 655v844h151v-844q0 -186 23.5 -295.5t87 -154.5t115 -54.5t162.5 -9.5h16q43 0 67.5 1t63.5 5.5t61.5 13.5t53 26.5t49 43t39 64.5t32 89t18.5 118.5t7 152.5v844h154v-844q0 -190 -36 -322t-82 -197.5t-131 -100.5t-140.5 -40t-155.5 -5h-19q-55 0 -82.5 1t-78 4 t-77 12t-68.5 24.5t-65.5 41t-54 60.5t-47 85t-33 112.5t-23.5 144.5t-7 180z" />
<glyph unicode="V" horiz-adv-x="1372" d="M92 1499h166l438 -1257l459 1257h166l-551 -1499h-152z" />
<glyph unicode="W" horiz-adv-x="1970" d="M92 1499h166l436 -1235l371 1235h172l-139 -479l272 -768l383 1247h166l-469 -1499h-152l-280 766l-248 -766h-152z" />
<glyph unicode="X" horiz-adv-x="1220" d="M92 1499h166l369 -629l377 629h165l-442 -739l432 -760h-166l-366 631l-363 -631h-166l428 760z" />
<glyph unicode="Y" horiz-adv-x="1290" d="M92 1499h166l387 -786l428 786h166l-518 -967v-532h-152v532z" />
<glyph unicode="Z" horiz-adv-x="1153" d="M72 0v152l811 1196h-811v151h1009v-151l-811 -1196h811v-152h-1009z" />
<glyph unicode="[" horiz-adv-x="657" d="M174 -78v1450q0 57 9.5 108.5t36 112t86 96t147.5 35.5h163v-151h-163q-57 0 -92 -54.5t-35 -146.5v-1450q05D3D94AA7" />
<glyph unicode="\" horiz-adv-x="819" d="M41 1577h162l575 -1724h-162z" />
<glyph unicode="]" horiz-adv-x="657" d="M41 -279h164q57 0 92 54.5t35 146.5v1450q0 92 -35 146.5t-92 54.5h-164v151h164q88 0 147.5 -35.5t86 -96t35.5 -111.5t9 -109v-1450q0 -57 -9 -108.5t-35.5 -111.5t-86 -96t-147.5 -36h-164v151z" />
<glyph unicode="^" horiz-adv-x="802" d="M102 1087l240 267h145l213 -267h-145l-143 146l-162 -146h-148z" />
<glyph unicode="_" horiz-adv-x="1380" d="M41 -2v152h1298v-152h-1298z" />
<glyph unicode="`" horiz-adv-x="495" d="M41 1360h195l219 -273h-142z" />
<glyph unicode="a" horiz-adv-x="1062" d="M82 258v125q0 125 72.5 198.5t199.5 73.5q228 -1 341.5 -1t113.5 1q1 68 1 102.5t-1 35.5q0 168 -168 168q-184 0 -524 -25v111q207 57 530 61h7q132 0 218 -77q88 -79 89 -238v-793h-113l-39 131l-30 -14q-30 -14 -79 -36t-106 -43.5t-122.5 -35.5t-117.5 -14 q-117 0 -194.5 71.5t-77.5 198.5zM233 268q0 -129 121 -129q163 0 455 105v293l-455 -33q-61 -6 -91 -43t-30 -90v-103z" />
<glyph unicode="b" d="M123 0v1608h147v-586q92 37 210 59.5t194 22.5q111 0 185.5 -47t110.5 -134t49 -176.5t13 -207.5q0 -104 -15.5 -193.5t-52 -174.5t-110.5 -134t-180 -49q-94 0 -222 48t-180 85l-41 -121h-108zM272 233q231 -94 402 -94q207 0 207 400q0 238 -50.5 325.5t-156.5 87.5 q-197 0 -402 -53v-666z" />
<glyph unicode="c" horiz-adv-x="1024" d="M102 545q0 172 26 285.5t77 170t110.5 77t145.5 20.5q180 0 467 -54v-110q-285 12 -467 12q-55 0 -86 -10t-62.5 -48t-45 -124t-13.5 -227q0 -229 46 -312.5t161 -83.5q84 0 203.5 5.5t198.5 11.5l79 6v-115q-197 -55 -481 -59q-84 0 -142.5 20.5t-110.5 76.5t-79 171 t-27 287z" />
<glyph unicode="d" d="M102 539q0 119 13.5 208t49.5 176t110.5 134t185.5 47q76 0 192.5 -22.5t208.5 -59.5v586h150v-1608h-109l061961DA18" />
<glyph unicode="e" horiz-adv-x="1075" d="M102 549q0 180 25 289.5t89.5 166t143 74t218.5 17.5q113 0 176 -10.5t124.5 -47.5t88 -116.5t26.5 -210.50C5F81BA2D" />
<glyph unicode="f" horiz-adv-x="819" d="M41 936v117l199 34v203q0 45 2 77t16 82t39 82t75 55.5t120 23.5q127 0 286 -49v-101l-252 2q-47 0 -75.5 -11t-41 -39t-15.5 -52.5t-3 -69.5v-203h303v-151h-303v-936h-151v936h-199z" />
<glyph unicode="g" d="M92 -63l82 133q-76 53 -76 166q0 57 31 107t90 63q-119 76 -119 299q0 190 93.5 288.5t261.5 98.5h639v-115l-166 -37q2 -4 14 -25.5t18.5 -35t14.5 -39t12 -59t4 -76.5q0 -57 -13 -117t-46 -128.5t-104.5 -111.5t-174.5 -43h-319q-84 0 -84 -61q0 -70 84 -70h436 q125 0 194.5 -77t69.5 -206v-129q0 -55 -11 -102t-41 -99.5t-95.5 -83t-159.5 -30.5h-307q-150 0 -239 80t-89 235v175zM244 39v-277q0 -163 174 -163h2h307q156 0 156 163v119q0 78 -28 110t-112 32h-407q-29 0 -51.5 4t-31.5 8zM252 705q0 -43 8 -82t26.5 -79t58.5 -63.5 t95 -23.5h201q111 0 157 77q42 72 42 156v15q-6 119 -47 177t-154 58h-184h-2q-201 0 -201 -235z" />
<glyph unicode="h" horiz-adv-x="1114" d="M123 0v1606h151v-645q6 2 45 25.5t48.5 27.5t44 23.5t49 23.5t47.5 16.5t54.5 16.5t52 8t61.5 4q156 0 246 -102.5t90 -245.5v-758h-152v758q0 98 -50 147t-134 49q-78 0 -147.5 -16t-111.5 -33.5t-143 -66.5v-838h-151z" />
<glyph unicode="i" horiz-adv-x="403" d="M102 1264v110q0 51 50 51h102q47 0 47 -51v-110q0 -47 -47 -47h-102q-50 0 -50 47zM123 0v1087h151v-1087h-151z" />
<glyph unicode="j" horiz-adv-x="444" d="M123 1264v110q0 51 49 51h102q47 0 48 -51v-110q0 -47 -48 -47h-102q-49 0 -49 47zM145 -553v1640h152v-1095v-46q0 -326 -53 -499h-99z" />
<glyph unicode="k" horiz-adv-x="1024" d="M123 0v1602h151v-902h82l416 387h211l-483 -462l483 -625h-188l-439 549h-82v-549h-151z" />
<glyph unicode="l" horiz-adv-x="614" d="M123 387v1217h151v-1217q0 -125 29 -173t88 -62q168 -43 182 -43v-109h-180q-270 0 -270 387z" />
<glyph unicode="m" horiz-adv-x="1839" d="M123 0v1087h106l45 -131q12 8 50 30t53.5 31t49.5 25.5t55.5 23.5t52 17.5t62.5 13.5t65 3q102 0 184 -43t117 -117q193 160 438 160q143 0 239.5 -98.5t96.5 -251.5v-750h-152v750q0 90 -52 144t-132 54q-123 0 -212 -24.5t-190 -89.5v-80v-754h-151v750q0 90 -52.5 144 t-133.5 54q-76 0 -142.5 -16.5t-103.5 -31.5t-142 -66v-834h-151z" />
<glyph unicode="n" horiz-adv-x="1114" d="M123 0v1087h106l45 -126q6 2 45 25.5t48.5 27.5t44 23.5t49 23.5t47.5 16.5t54.5 16.5t52 8t61.5 4q156 0 246 -102.5t90 -245.5v-758h-152v758q0 96 -51 146t-133 50q-78 0 -147.5 -16t-111.5 -33.5t-143 -66.5v-838h-151z" />
<glyph unicode="o" horiz-adv-x="1163" d="M102 528q0 330 104.5 450t375.5 120q274 0 376.5 -122t102.5 -448q0 -305 -102.5 -421.5t-376.5 -116.5q-270 0 -375 120.5t-105 417.5zM254 528q0 -133 19.5 -212.5t67.5 -116.5t98 -47.5t143 -10.5q94 0 146 10.5t98 48.5t64.5 116.5t18.5 211.5q0 145 -15 229.5 t-60.5 126.5t-97.5 52t-154 10q-78 0 -123 -6t-90 -28.5t-66.5 -67.5t-35 -122t-13.5 -194z" />
<glyph unicode="p" d="M123 -553v1640h108l39 -120q51 37 180.5 85t223.5 48q106 0 180 -49.5t110.5 -134.5t52 -174t15.5 -193q0 -119 -13 -208t-49 -176t-111 -134t-185 -47q-76 0 -194 22.5t-210 59.5v-619h-147zM270 188q205 -53 404 -53q106 0 156.5 88t50.5 326q0 399 -207 399 q-172 0 -404 -94v-666z" />
<glyph unicode="q" horiz-adv-x="1136" d="M102 549q0 264 94.5 407.5t282.5 143.5q96 0 204 -9.5t207 -22.5t124 -15v-1606h-152v612q-195 -79 -378 -79h-5q-115 0 -190.5 41.5t-115.5 122.5t-55.5 177.5t-15.5 227.5zM254 549q0 -210 29 -288q49 -130 196 -130q115 0 185.5 9.5t197.5 41.5v766h-383 q-225 0 -225 -399z" />
<glyph unicode="r" horiz-adv-x="872" d="M123 0v1087h106l45 -137q10 6 52.5 31t55.5 32t50 25.5t58.5 25.5t55.5 17.5t66.5 14.5t67.5 4q119 0 151 -17v-149q-49 12 -151 12q-78 0 -148.5 -16.5t-112.5 -34.5t-145 -68v-827h-151z" />
<glyph unicode="s" horiz-adv-x="1036" d="M82 733v94q0 133 65.5 202t217.5 69q195 0 534 -33v-117h-534q-47 0 -76 -8t-40 -27.5t-13.5 -36t-2.5 -49.5v-94q0 -41 9.5 -65.5t30 -34.5t39 -13.5t53.5 -3.5h323q129 0 197.5 -72.5t68.5 -191.5v-100q0 -152 -73.5 -207t-192.5 -55q-193 0 -561 39v112h561 q0 2 11.5 0t28.5 4.5t33.5 14.5t29 32.5t12.5 59.5v100q0 57 -25.5 85t-89.5 28h-323q-150 0 -216.5 57t-66.5 211z" />
<glyph unicode="t" horiz-adv-x="774" d="M41 938v115l203 37l37 303h114v-303h318v-152h-318v-549q0 -125 29 -173t88 -62q168 -43 182 -43v-109h-180q-270 0 -270 387v549h-203z" />
<glyph unicode="u" horiz-adv-x="1114" d="M102 330v757h152v-757q0 -96 51 -146.5t133 -50.5q78 0 147.5 16.5t111.5 34t143 66.5v837h151v-1087h-1060B75AA9A54" />
<glyph unicode="v" horiz-adv-x="1097" d="M41 1087h166l340 -864l344 864h166l-436 -1087h-152z" />
<glyph unicode="w" horiz-adv-x="1640" d="M41 1087h166l321 -864l283 864h164l-111 -348l238 -516l332 864h165l-415 -1087h-152l-241 532l-179 -532h-163z" />
<glyph unicode="x" horiz-adv-x="1073" d="M49 0l393 545l-393 542h189l294 -417l304 417h188l-397 -548l381 -539h-172l-299 414l-299 -414h-189z" />
<glyph unicode="y" d="M43 1087h166l264 -849q16 -51 50 -72t60 -14l25 6l312 929h170l-480 -1431l-153 -209h-95l193 553q-176 0 -246 225z" />
<glyph unicode="z" horiz-adv-x="933" d="M61 936v151h811v-151l-581 -782h581v-152h-780v152l592 782h-623z" />
<glyph unicode="{" horiz-adv-x="655" d="M41 614v138q4 0 26.5 2t32 3t30 4t29.5 8t24.5 13.5t22.5 18.5t13 25.5t6 33.5v483q0 162 98.5 271.5t290.0D76215A55" />
<glyph unicode="|" horiz-adv-x="501" d="M176 -147v1724h152v-1724h-152z" />
<glyph unicode="}" horiz-adv-x="655" d="M41 -279q109 -6 174.5 48.5t65.5 152.5v592q0 63 49 111.5t123 58.5q-78 14 -126 59t-48 117v483q0 129 -63.5 179.5t-174.5 50.5v151q193 0 291 -109.5t98 -271.5v-483q0 -18 6 -33.5t13.5 -25.5t22.5 -18.5t24.5 -13.5t30 -8t29.5 -4t31.5 -3t26.5 -2v-138 q-70 6 -126 -21.5t-56 -86.5v-584q0 -66 -19.5 -124t-61.5 -111.5t-121.5 -85t-188.5 -31.5v151z" />
<glyph unicode="~" horiz-adv-x="897" d="M102 1171q16 12 55.5 48t57.5 49.5t53 28t74 14.5q47 0 112.5 -36t104.5 -36q23 0 44.5 5t43 15.5t35.5 180D4E3DEA4D" />
<glyph unicode="&#xa2;" horiz-adv-x="1003" d="M82 545q0 178 26.5 293.5t82 173t120 76t162.5 14.5v196h123v-206q154 -18 311 -48v-110q-285 16 -467 16q-43 0 -69.5 -6t-55 -28.5t-45 -65.5t-27 -122t-10.5 -191q0 -229 47.5 -314.5t159.5 -85.5q84 0 204 5t199 12l79 6v-115q-150 -43 -326 -53v-189h-123v183 q-98 -2 -161.5 16t-120 74.5t-83 172.5t-26.5 296z" />
<glyph unicode="&#xa3;" horiz-adv-x="1220" d="M102 0v121l148 31v524h-148v92l148 35v231q0 92 12 164t32.5 120t55.5 83t70 53.5t88 28.5t97 13t112 3l401 -33v-116h-397q-76 0 -112 -2t-81 -11.5t-62 -28t-35.5 -55t-24 -89t-5.5 -130.5v-231l555 -35v-92h-555v-524h715v-152h-1014z" />
<glyph unicode="&#xa5;" horiz-adv-x="1228" d="M41 1499h166l387 -692l422 692h172l-516 -842h370v-120h-372v-103h372v-121h-372v-313h-152v313h-350v121h350v103h-350v120h348z" />
<glyph unicode="&#xa9;" horiz-adv-x="1660" d="M113 754q0 745 465 745h552q84 0 150 -28.5t109 -72.5t74.5 -112.5t47 -130t24.5 -143.5t11 -135.5t2 -122037BF75A66" />
<glyph unicode="&#xad;" horiz-adv-x="724" d="M41 518v152h643v-152h-643z" />
<glyph unicode="&#xae;" horiz-adv-x="1660" d="M113 754q0 745 465 745h552q84 0 150 -28.5t109 -72.5t74.5 -112.5t47 -130t24.5 -143.5t11 -135.5t2 -122.5q0 -156 -22.5 -286t-69.5 -237.5t-130 -169t-196 -61.5h-552q-109 0 -193 53t-134 133t-83 184.5t-44 198t-11 185.5zM244 754q0 -246 86 -433.5t248 -189.5 h552q127 2 207 162t80 461q0 90 -4 159.5t-20.5 160.5t-45 150.5t-84 101.5t-133.5 42h-552q-156 0 -245 -135t-89 -479zM535 313v875h362q274 0 274 -262q0 -84 -18 -139.5t-57 -81t-58.5 -32.5t-62.5 -16l186 -344h-147l-187 349l-161 24v-373h-131zM666 776h243 q80 0 105.5 29t25.5 119q0 45 -12 74.5t-34.5 41t-40 14.5t-44.5 3h-243v-281z" />
<glyph unicode="&#xb4;" horiz-adv-x="495" d="M41 1087l219 273h195l-273 -273h-141z" />
<glyph unicode="&#x2000;" horiz-adv-x="880" />
<glyph unicode="&#x2001;" horiz-adv-x="1761" />
<glyph unicode="&#x2002;" horiz-adv-x="880" />
<glyph unicode="&#x2003;" horiz-adv-x="1761" />
<glyph unicode="&#x2004;" horiz-adv-x="587" />
<glyph unicode="&#x2005;" horiz-adv-x="440" />
<glyph unicode="&#x2006;" horiz-adv-x="293" />
<glyph unicode="&#x2007;" horiz-adv-x="293" />
<glyph unicode="&#x2008;" horiz-adv-x="220" />
<glyph unicode="&#x2009;" horiz-adv-x="352" />
<glyph unicode="&#x200a;" horiz-adv-x="97" />
<glyph unicode="&#x2010;" horiz-adv-x="724" d="M41 518v152h643v-152h-643z" />
<glyph unicode="&#x2011;" horiz-adv-x="724" d="M41 518v152h643v-152h-643z" />
<glyph unicode="&#x2012;" horiz-adv-x="724" d="M41 518v152h643v-152h-643z" />
<glyph unicode="&#x2013;" horiz-adv-x="1050" d="M41 512v154h969v-154h-969z" />
<glyph unicode="&#x2014;" horiz-adv-x="1507" d="M41 516v154h1425v-154h-1425z" />
<glyph unicode="&#x2018;" horiz-adv-x="552" d="M164 1141v202q0 160 148 175l65 -2v-72q-70 2 -70 -70v-57h25q57 0 57 -55v-121q0 -61 -57 -62h-115q-53 1 -53 62z" />
<glyph unicode="&#x2019;" horiz-adv-x="552" d="M164 1337v121q0 61 57 62h115q53 0 53 -62v-203q0 -160 -148 -175l-65 1v72q70 -2 70 72v55h-25q-57 0 -57 57z" />
<glyph unicode="&#x201c;" horiz-adv-x="856" d="M150 1141v202q0 160 148 175q65 -2 64 -2v-72q-70 2 -69 -70v-55h24q57 0 58 -57v-121q0 -61 -58 -62h-114q-53 1 -53 62zM481 1141v202q0 59 22.5 99.5t54.5 54.5t62.5 19.5t53.5 2.5l22 -3v-72q-72 2 -71 -70v-55h26q55 0 56 -57v-121q0 -61 -56 -62h-114q-56 1 -56 62 z" />
<glyph unicode="&#x201d;" horiz-adv-x="856" d="M150 1337v121q0 61 55 62h114q55 0 56 -62v-203q0 -59 -22.5 -99t-54.5 -54.5t-62.5 -20.5t-53.5 -3l-22 3v72q70 -2 69 72v55h-24q-55 0 -55 57zM481 1337v121q0 61 58 62h114q53 0 54 -62v-203q0 -160 -149 -175q-65 1 -64 1v72q70 -2 69 72v55h-24q-58 0 -58 57z" />
<glyph unicode="&#x2022;" horiz-adv-x="638" d="M174 698v164q0 72 68 72h151q72 0 72 -72v-164q0 -66 -72 -65h-151q-68 -1 -68 65z" />
<glyph unicode="&#x2026;" horiz-adv-x="1671" d="M174 47v117q0 51 49 51h109q51 0 51 -51v-117q0 -47 -51 -47h-109q-49 0 -49 47zM731 47v117q0 51 49 51h109q51 0 51 -51v-117q0 -47 -51 -47h-109q-49 0 -49 47zM1288 47v117q0 51 49 51h109q51 0 51 -51v-117q0 -47 -51 -47h-109q-49 0 -49 47z" />
<glyph unicode="&#x202f;" horiz-adv-x="352" />
<glyph unicode="&#x205f;" horiz-adv-x="440" />
<glyph unicode="&#x20ac;" horiz-adv-x="1251" d="M41 522v96l180 15v207l-180 16v88l180 19v16q0 51 1 82t10.5 93.5t25.5 104t51 95t85 85t128 54.5t178 23q0AC731FAFA" />
<glyph unicode="&#x2122;" horiz-adv-x="1417" d="M41 1368v131h530v-131h-198v-584h-131v584h-201zM651 784l56 715h129l190 -485l164 485h133l63 -715h-131l-34 414l-138 -414h-108l-162 416l-31 -416h-131z" />
<glyph unicode="&#xe000;" horiz-adv-x="1085" d="M0 1085h1085v-1085h-1085v1085z" />
</font>
</defs>
</svg>
